+ ShareSpark.net »  :::: Dubbed Zone (Dubbed English in Hindi) » English Movies Dubbed in Hindi
|- Teenage Mutant Ninja Turtles Out of the Shadows 2016 720p BluRay x264 Dual Audio [Hindi DD 5.1 Eng]


Mastercard 10% Off

Teenage Mutant Ninja Turtles Out of the Shadows 2016 720p BluRay x264 Dual Audio [Hindi DD 5.1 Eng]

0 Members and 1 Guest are viewing this topic.

October 09, 2018, 07:47:04 PM
  • Legend Member
  • ****
  • Topic Author
  • Thank You: 1312
  • Reputation: 509
  • Activity:
    100%
  • Country: pk
  • Posts: 1542
  • Topics: 855
  • Join Date: Mar 2015
  • ShareSpark Member
Teenage Mutant Ninja Turtles Out of the Shadows 2016 720p BluRay x264 Dual Audio [Hindi DD 5.1 - English] ESub [MW]









General
Format : Matroska
Format version : Version 4 / Version 2
File size : 1.61 GiB
Duration : 1 h 52 min
Overall bit rate : 2 059 kb/s

Video
ID : 1
Format : AVC
Format/Info : Advanced Video Codec
Format profile : [email protected]
Format settings : CABAC / 4 Ref Frames
Format settings, CABAC : Yes
Format settings, RefFrames : 4 frames
Codec ID : V_MPEG4/ISO/AVC
Duration : 1 h 52 min
Bit rate : 1 500 kb/s
Width : 1 280 pixels
Height : 534 pixels
Display aspect ratio : 2.40:1
Original display aspect ratio : 2.40:1
Frame rate mode : Constant
Frame rate : 23.976 (23976/1000) FPS
Color space : YUV
Chroma subsampling : 4:2:0
Bit depth : 8 bits
Scan type : Progressive
Bits/(Pixel*Frame) : 0.092
Stream size : 1.17 GiB (73%)
Writing library : x264 core 152 r2851M ba24899
Default : Yes
Forced : No

Audio #1
ID : 2
Format : AC-3
Format/Info : Audio Coding 3
Codec ID : A_AC3
Duration : 1 h 52 min
Bit rate mode : Constant
Bit rate : 448 kb/s
Channel(s) : 6 channels
Channel positions : Front: L C R, Side: L R, LFE
Sampling rate : 48.0 kHz
Frame rate : 31.250 FPS (1536 SPF)
Bit depth : 16 bits
Compression mode : Lossy
Stream size : 359 MiB (22%)
Language : Hindi
Service kind : Complete Main
Default : Yes
Forced : Yes

Audio #2
ID : 3
Format : AAC
Format/Info : Advanced Audio Codec
Format profile : LC
Codec ID : A_AAC-2
Duration : 1 h 52 min
Bit rate : 96.0 kb/s
Channel(s) : 2 channels
Channel positions : Front: L R
Sampling rate : 48.0 kHz
Frame rate : 46.875 FPS (1024 SPF)
Compression mode : Lossy
Stream size : 77.0 MiB (5%)
Language : English
Default : No
Forced : No

Text #1
ID : 4
Format : VobSub
Muxing mode : zlib
Codec ID : S_VOBSUB
Codec ID/Info : Picture based subtitle format used on DVDs
Duration : 1 h 42 min
Bit rate : 6 124 b/s
Count of elements : 1508
Stream size : 4.51 MiB (0%)
Language : English
Default : Yes
Forced : No





 :ss:















 :download:


























Share this topic on FacebookShare this topic on GoogleShare this topic on MySpaceShare this topic on TwitterShare this topic on Yahoo




Tags:
 

Related Topics





Back to top